Free Websites at Nation2.com


Total Visits: 3268

Engeyum Kadhal Blu Ray Video Songs 1080p Torrent

Engeyum Kadhal Blu Ray Video Songs 1080p Torrent

engeyum kadhal blu ray video songs 1080p torrent

 

Engeyum Kadhal Blu Ray Video Songs 1080p Torrent > http://bit.ly/2o053Us

 

 

 

 

 

 

 

 

 

 

 

 

 

 

 

 

 

 

 

 

 

 

 

 

 

 

 

 

 

 

 

 

 

 

 

 

 

 

 

 

 

 

 

 

 

 

 

 

 

 

 

 

Engeyum Kadhal Blu Ray Video Songs 1080p Torrent

 

f44c5aec2f

Welcome to Mp3Gratiss.com! Please type in a name of a song, artist, or both of them! gopal221296 1,248,803 views 5:35 76 videos Play all tamil songs 2012-2013vivek mahadevan Po Nee Po 3 Moonu HD Bluray Video Song YouTube new) dvd auto - Duration: 6:19Latest visited jcink.com bungsopar.persianblog.ir digeus.com phl.bizdirlib.com hiredtoday.com tis.rne.eu bbhw.nl speedtest.imon.net kasurkotor.com sofuargo.blogtalker.netLatest checked keywordsmiddle finger chatboxdownload full pes patch 2013avg 2013 keys serialgoggle wordpadgtu blogspot.insouth indian background for photoshopmjhy abbas khty haihow to turn paint into water in the paint gunnerengineering ethics ge2025gtu mca sem 3 new java practical solutionsLatest searchesunity 3d city game wip tutorialdo sap de bache mobile dwonloundcricket beting tips report free.download.comunity 4dota 6.77 collidedru pgcet2013.orgbes free t vj softwareppt on pc suithow to install mods tokyo drift gta saassianbookie spbo.com.No other tracker is present in the trackers list when I checkedYou can change this preference below

 

(#1 (permalink)) pradheepbala Beginner0+ Rep Power: 128 Posts: 13 Gameroom cash: $ Thanks: 5 Thanked 250 Times in 4 Posts Join Date: Dec 2007 Location: Chennai UL: 276.39 gb DL: 57.47 gb Ratio: 4.81 My Releases: 4 - Downloads: 299 Engeyum Kadhal (2011) 1080p Bluray Rip MKV Video Songs - 10-22-2012, 09:27 PM Engeyum Kadhal (2011) 1080p Bluray Rip MovieInfo Directed & Written by Prabhudeva Starring Jayam Ravi, Hansika Motwani Music by Harris Jayaraj Cinematography Nirav Shah Editing by Anthony Release date(s) 6 May 2011 Country India Language Tamil MediaInfo Video ID : 1 Format : AVC Format/Info : Advanced Video Codec Format profile : HighL4.0 Format settings, CABAC : Yes Format settings, ReFrames : 4 frames Muxing mode : Header stripping Codec ID : VMPEG4/ISO/AVC Duration : 5mn 21s Bit rate : 6 999 Kbps Width : 1 916 pixels Height : 814 pixels Display aspect ratio : 2.35:1 Frame rate mode : Constant Frame rate : 23.976 fps Color space : YUV Chroma subsampling : 4:2:0 Bit depth : 8 bits Scan type : Progressive Bits/(Pixel*Frame) : 0.187 Stream size : 262 MiB (80%) Title : Engeyum Kaadhal Writing library : x264 core 116 r2074 2641b9e Default : Yes Forced : No Audio ID : 2 Format : DTS Format/Info : Digital Theater Systems Muxing mode : Header stripping Codec ID : ADTS Duration : 5mn 21s Bit rate mode : Constant Bit rate : 1 510 Kbps Channel(s) : 6 channels Channel positions : Front: L C R, Side: L R, LFE Sampling rate : 48.0 KHz Bit depth : 16 bits Compression mode : Lossy Stream size : 57.9 MiB (18%) Title : Engeyum Kaadhal Default : Yes Forced : No SCREENSHOTS SongsInfo 01UTALW 209,302 views 5:31 michel madana kamarajan-per vachalum vaikama.mp4 - Duration: 5:18Latest visited jcink.com bungsopar.persianblog.ir digeus.com phl.bizdirlib.com hiredtoday.com tis.rne.eu bbhw.nl speedtest.imon.net kasurkotor.com sofuargo.blogtalker.netLatest checked keywordsmiddle finger chatboxdownload full pes patch 2013avg 2013 keys serialgoggle wordpadgtu blogspot.insouth indian background for photoshopmjhy abbas khty haihow to turn paint into water in the paint gunnerengineering ethics ge2025gtu mca sem 3 new java practical solutionsLatest searchesunity 3d city game wip tutorialdo sap de bache mobile dwonloundcricket beting tips report free.download.comunity 4dota 6.77 collidedru pgcet2013.orgbes free t vj softwareppt on pc suithow to install mods tokyo drift gta saassianbookie spbo.comToggle navigationMp3DownloadOnline.com Genre Children's MusicChristian & GospelCountryDanceDangdutHip-HopHip-Hop/RapK-PopLatinMetalPopR&B/SoulRockSalsa y TropicalSoundtrack Top Songs Top Albums Top Videos New Country Latin Chart Top 10Drake - More LifeEd Sheeran - DivideTrey Songz - Tremaine The AlbumSoundtrack - Beauty And The Beast (2017)Metallica - Hardwired.To Self-DestructBruno Mars - 24K MagicSoundtrack - MoanaRick Ross - Rather You Than MeFuture - FUTUREThe Weeknd - Starboy Single link Download(#5 (permalink)) pradheepbala Beginner0+ Rep Power: 128 Posts: 13 Gameroom cash: $ Thanks: 5 Thanked 250 Times in 4 Posts Join Date: Dec 2007 Location: Chennai UL: 276.39 gb DL: 57.47 gb Ratio: 4.81 My Releases: 4 - Downloads: 299 10-23-2012, 07:02 AM Thanks dudeToggle navigationMp3DownloadOnline.com Genre Children's MusicChristian & GospelCountryDanceDangdutHip-HopHip-Hop/RapK-PopLatinMetalPopR&B/SoulRockSalsa y TropicalSoundtrack Top Songs Top Albums Top Videos New Country Latin Chart Top 10Drake - More LifeEd Sheeran - DivideTrey Songz - Tremaine The AlbumSoundtrack - Beauty And The Beast (2017)Metallica - Hardwired.To Self-DestructBruno Mars - 24K MagicSoundtrack - MoanaRick Ross - Rather You Than MeFuture - FUTUREThe Weeknd - Starboy But I have added only TamilTorrents as the tracker.0:55 + The President Show - All Winners, No Losers Close Learn more You're viewing YouTube in English (US)Monday, 6 August 2012LoadingSign in 28 5 Don't like this video? Sign in to make your opinion countDuration min Rating: 0.00 Downloaded: times Play Video Lyrics Download Related Fav Hide Engeyum Kadhal 9(0)90 tnhq.net Tamil HD video Songs, TamilHD 720p video songs, smart HD video Songs,BDRip SongsTamil HD video Songs, TamilHD 720p video songs, smart HD video Songs, tamil 1080p video songs, Tamil HQ, Tamil videos, Tamil BlueRay Video songs, Tamil BDRip songs,BRRipLook at 1 relevant links#9 /HDVideos/index.php?dir=A%20to%20Z/Engeyum%20Ka14(0)140 youtube.com Your browser is deprecated3(0)30 hdking.pro Look at 1 relevant links#3 /video/engeyum-kadhal-movie-hd-1080p-blu-ray 4(2)42 youtube.com Your browser is deprecatedLoading

transformers 4 720p yify tv
40 inch 1080p tv deals
mucha diferencia entre 720p y 1080p projectors
jind mahi cycle te 1080p vs 720p
through the wormhole season 1 720p vs 1080p
kutsal damacana dracula full izle 720p projector
sanyo 50 lcd 1080p 60hz
hd muscle cars wallpapers 1080p 1920x1200
hindi movies in hd 720p
mere khwabon mein jo aaye 1080p backgrounds